DNS SERVER AENDERNum der staatlichen Zensur zu umgehen. Sollten wir von eurem Provider geseprrt werden, nutzt den TOR BROWSER oder ändert euren DNS SERVER.

Filmwünsche können bei uns im Forum abgegeben werden

Wir Speichern Nicht




 
 
 
Top Releases
Jung.und.schoen.2013.German....
The.Seagull.Eine.unerhoerte....
Racer.and.the.Jailbird.2017....
Jurassic.World.2.Das.gefalle...
3.Tage.in.Quiberon.2018.GERM...
3.Tage.in.Quiberon.2018.GERM...
Norman.2016.German.AC3D.DL.1...
Wo.steckt.Sidney.Hall.2017.G...
Chappie.2015.German.AC3.DL.1...
Solo.A.Star.Wars.Story.2018....

Cinedubs
Hotel.Transsilvanien.3.Ein.M...
Hotel.Transsilvanien.3.Ein.M...
The.Seagull.Eine.unerhoerte....
The.Seagull.Eine.unerhoerte....
First.Reformed.2017.German.D...
Mamma.Mia.2.Here.We.Go.Again...
First.Reformed.German.DL.AC3...
The.First.Purge.2018.German....
No.Way.Out.Gegen.die.Flammen...
First.Reformed.German.DL.AC3...

Neuerscheinungen 2017-18
Neun.Monate.Nine.Months.1995...
X-Men.2000.COMPLETE.UHD.BLUR...
Mom.and.Dad.2017.MULTI.COMPL...
The.Asian.Connection.2016.CO...
Mom.and.Dad.2017.GERMAN.720p...
Solo.A.Star.Wars.Story.2018....
3.Tage.in.Quiberon.2018.GERM...
The.Asian.Connection.2016.GE...
The.Asian.Connection.2016.GE...
Sharknado.6.The.Last.One.201...

XXX
AllOver30.18.09.18.Kiana.Kra...
Alone.In.Her.Room.2.XXX.720p...
Amateur.Teen.Lap.Grinders.2....
Bang.Europe.4.XXX.1080p.WEBR...
AllOver30.18.09.20.Cierra.Ma...
ALSScan.18.09.19.Paige.Owens...
AuntJudys.18.09.17.Helen.Vol...
Alone.In.Her.Room.2.XXX.1080...
ATKHairy.18.09.14.Alice.Merc...
BangBros18.18.09.18.Ana.Rose...
Bang.RealMILFs.18.09.18.Jasm...
Anilos.18.09.18.Tracey.Hein....
Bang.RealTeens.18.09.17.Jess...
AuntJudys.18.09.14.Aliona.Ha...
Bang.ScrewTheCops.18.09.19.D...
Amateur.Teen.Lap.Grinders.2....
Anilos.18.09.19.Kira.Queen.B...
Babes.18.09.17.Molly.Mae.Pal...
AmateurCFNM.18.09.18.Carmel....
Anilos.18.09.20.Kira.Queen.L...

3D
Sharknado.6.The.Last.One.3D....
Solo.A.Star.Wars.Story.3D.20...
Solo.A.Star.Wars.Story.3D.20...
Die.Biene.Maja.2.Die.Honigsp...
Avengers.Infinity.War.3D.201...
Avengers.Infinity.War.3D.201...
Rampage.Big.Meets.Bigger.3D....
Rampage.Big.Meets.Bigger.3D....
Rampage.Big.Meets.Bigger.3D....
Winter.Games.3D.2013.DUAL.CO...
Tomb.Raider.3D.2018.German.7...
Rampage.Big.Meets.Bigger.3D....
Rampage.Big.Meets.Bigger.3D....
Tomb.Raider.3D.2018.MULTi.CO...
Pacific.Rim.Uprising.3D.2018...

Old_Stuff
Schimanski.-.Duisburg.Ruhror...
Akte.X.S02.German.DTS.DL.108...
How.I.Met.Your.Mother.S02.Ge...
Akte.X.S01.German.DTS.DL.108...
Den.Himmel.gibts.echt.DL.108...
Vikings.S02.German.DL.1080p....
Be.Kind.Rewind.Abgedreht.200...
Be.Kind.Rewind.Abgedreht.200...
Dracula.The.Dark.Lord.2012.G...
21.2008.German.DL.1080p.BluR...
Achtung.fertig.WK.Swissgerma...
The.Ouija.Exorcism.2015.MULT...
Meine.liebe.Rabenmutter.germ...
Da.Vincis.Demons.S01.Complet...
Eragon.Das.Vermaechtnis.der....

Filme
Battlestar.Galactica.S01-S04...
The.Last.Man.On.Earth.S04.Ge...
The.Last.Man.On.Earth.S04.Ge...
Die.Simpsons.S29.GERMAN.DUBB...
Young.Sheldon.S01.GERMAN.DUB...
Young.Sheldon.S01.GERMAN.DUB...
The.Last.Ship.S05.GERMAN.DUB...
The.Last.Ship.S05.GERMAN.DUB...
Cloak.and.Dagger.Ein.toedlic...
Piranha.II.-.Fliegende.Kille...
Robin.Hood.2010.UNRATED.Germ...
Tango.und.Cash.1989.German.1...
Batman.Begins.2005.German.AC...
Talk.to.the.Dead.2013.German...
Tannoed.2009.German.DTS.1080...
Ran.1985.German.AC3.DL.1080p...
Tanz.der.Teufel.II.1987.Germ...
Loewengrube.1989.S01D01+2.GE...
Tanz.der.Teufel.1981.UNCUT.R...
Tao.Jie.Ein.einfaches.Leben....
Taped.2012.GERMAN.1080p.HDTV...
Arrow.S06.GERMAN.DL.1080p.HD...
Arrow.S06.GERMAN.DL.720p.HDT...
Taras.Bulba.1962.GERMAN.AC3D...

 
 
Battlestar.Galactica.S01-S04.COMPLETE.German.720p.BluRay.x264-Scene

Jahr: 2004-2009
Genre: Action | Abenteuer | Sci-Fi | Drama
Sprache: S01 &S02 Deutsch AC3 2.0 - S03 &S04 Deutsch AC3 5.1
Laufzeit: 40min je Folge
Bitrate: 3000-5000 Kbps
Format: MKV
Größe: 1,5 - 2 GB je Folge
Release:

Beschreibung:

Ohne Vorwarnung führen die Zylonen, roboterartige Wesen, die auch menschliche Gestalt annehmen können, einen vernichtenden Krieg gegen ihre menschlichen Schöpfer. Commander Adama reaktiviert das Schlachtschiff Galactica, stellt ein neues Team von unerschrockenen Kampfpiloten zusammen und begibt sich mit den Überlebenden der Katastrophe auf die Suche nach der sagenumwobenen 13. Kolonie der Menschheit – der Erde… Vierzig Jahre nach den erbittert geführten Zylonen-Kriegen taucht der tödlichste Feind der Menschheit wieder auf – ohne Vorwarnung und mit aller Macht. In einer plötzlichen, vernichtenden nuklearen Attacke löschen die roboterartigen Wesen, von denen einige menschliche Gestalt angenommen haben, Millionen von Menschen aus.

Nur eine bunt gemischte Flotte der Kolonialen Streitkräfte ist übrig geblieben, um die wenigen Überlebenden der Menschheit in Sicherheit zu bringen. Commander William Adama (Edward J. Olmos), ein Veteran der Zylonen-Kriege und der ranghöchste überlebende Offizier, reaktiviert die Battlestar Galactica, um sich seiner größten Herausforderung zu stellen. Nach einer verlorenen Schlacht flieht der verbliebene Rest der Menschheit vor den Zylonen und begibt sich auf die Suche nach einer neuen Heimat, dem sagenumwobenen Ursprungsplaneten Erde. Mit den Vorräten und Waffen schwindet auch die Hoffnung, und Commander Adama und Präsident Laura Roslin (Mary McDonnell) müssen erkennen, dass ihre Probleme weitaus größer sind als die unmittelbare Bedrohung durch die Zylonen. Auf ihren Schultern lastet das Schicksal der Menschheit…



General
Complete name                            : Battlestar.Galactica.S01E00.Pilot.Teil1.German.720p.BluRay.x264-RSG\rsg-bsg-s01e00a-720p.mkv
Format                                   : Matroska
Format version                           : Version 2
File size                                : 2.15 GiB
Duration                                 : 1h 34mn
Overall bit rate                         : 3 246 Kbps
Encoded date                             : UTC 2011-12-12 10:31:49
Writing application                      : mkvmerge v5.1.0 ('And so it goes') built on Nov 28 2011 23:58:28
Writing library                          : libebml v1.2.3 + libmatroska v1.3.0

Video
ID                                       : 1
Format                                   : AVC
Format/Info                              : Advanced Video Codec
Format profile                           : High@L4.1
Format settings, CABAC                   : Yes
Format settings, ReFrames                : 5 frames
Codec ID                                 : V_MPEG4/ISO/AVC
Duration                                 : 1h 34mn
Bit rate                                 : 2 861 Kbps
Width                                    : 1 280 pixels
Height                                   : 720 pixels
Display aspect ratio                     : 16:9
Frame rate mode                          : Constant
Frame rate                               : 23.976 fps
Color space                              : YUV
Chroma subsampling                       : 4:2:0
Bit depth                                : 8 bits
Scan type                                : Progressive
Bits/(Pixel*Frame)                       : 0.129
Stream size                              : 1.85 GiB (86%)
Writing library                          : x264 core 120 r2119 0637cd6
Encoding settings                        : cabac=1 / ref=5 / deblock=1:-3:-3 / analyse=0x3:0x113 / me=umh / subme=7 / psy=1 / psy_rd=1.00:0.15 / mixed_ref=1 / me_range=16 / chroma_me=1 / trellis=1 / 8x8dct=1 / cqm=0 / deadzone=21,11 / fast_pskip=0 / chroma_qp_offset=-3 / threads=6 / sliced_threads=0 / nr=0 / decimate=1 / interlaced=0 / bluray_compat=0 / constrained_intra=0 / bframes=3 / b_pyramid=2 / b_adapt=1 / b_bias=0 / direct=3 / weightb=1 / open_gop=0 / weightp=2 / keyint=250 / keyint_min=23 / scenecut=40 / intra_refresh=0 / rc_lookahead=40 / rc=2pass / mbtree=1 / bitrate=2861 / ratetol=1.0 / qcomp=0.60 / qpmin=10 / qpmax=51 / qpstep=4 / cplxblur=20.0 / qblur=0.5 / ip_ratio=1.40 / aq=1:1.00
Language                                 : English
Default                                  : Yes
Forced                                   : No

Audio
ID                                       : 2
Format                                   : AC-3
Format/Info                              : Audio Coding 3
Mode extension                           : CM (complete main)
Format settings, Endianness              : Big
Codec ID                                 : A_AC3
Duration                                 : 1h 34mn
Bit rate mode                            : Constant
Bit rate                                 : 384 Kbps
Channel(s)                               : 6 channels
Channel positions                        : Front: L C R, Side: L R, LFE
Sampling rate                            : 48.0 KHz
Bit depth                                : 16 bits
Compression mode                         : Lossy
Stream size                              : 260 MiB (12%)
Language                                 : German
Default                                  : Yes
Forced                                   : No

Text
ID                                       : 3
Format                                   : UTF-8
Codec ID                                 : S_TEXT/UTF8
Codec ID/Info                            : UTF-8 Plain Text
Language                                 : German
Default                                  : Yes
Forced                                   : Yes



Download:
Share-Online.biz Share-Online.bizShare-Online.bizShare-Online.biz | Rapidgator.net Rapidgator.netRapidgator.netRapidgator.net
 

Kommentare