Filecrypt zeigt vereinzelt Files als "n/a". Die Downloads sind trotzdem komplett.

DNS SERVER AENDERNum der staatlichen Zensur zu umgehen. Sollten wir von eurem Provider geseprrt werden, nutzt den TOR BROWSER oder ändert euren DNS SERVER.

Filmwünsche können bei uns im Forum abgegeben werden

Wir Speichern Nicht




 
 
 
Top Releases
otel.Transsilvanien.3.Ein.Mo...
Hotel.Transsilvanien.3.Ein.M...
Jim.Knopf.und.Lukas.der.Loko...
Pin.Cushion.2017.MULTi.COMPL...
Hotel.Transsilvanien.3.Ein.M...
Le.Jeu.Nichts.zu.verbergen.2...
Sicario.2.Soldado.Sicario.Da...
Mission.Impossible.Fallout.I...
Jim.Knopf.und.Lukas.der.Loko...
The.Keeping.Hours.2017.Germa...

Cinedubs
Venom.German.DL.AC3.Dubbed.1...
Venom.German.DL.AC3.Dubbed.7...
Das.Haus.der.geheimnisvollen...
Das.Haus.der.geheimnisvollen...
Venom.TS.LD.German.720p.x264...
Predator.Upgrade.German.AC3L...
Predator.Upgrade.German.AC3L...
The.Nun.German.DL.AC3.Dubbed...
The.Nun.German.DL.AC3.Dubbed...
The.Happytime.Murders.Kein.S...

Neuerscheinungen 2017-18
Unhinged.Verstoert.und.Ausge...
Unhinged.Verstoert.und.Ausge...
School.Daze.1988.COMPLETE.BL...
Megalodon.2018.COMPLETE.BLUR...
Megalodon.Die.Bestie.aus.der...
Megalodon.Die.Bestie.aus.der...
Gotti.2018.German.DL.AC3.5.1...
Gotti.2018.German.DL.AC3.5.1...
Wildling.2018.German.RETAiL....
Wildling.2018.German.RETAiL....

XXX
Hitzefrei.18.07.02.Sina.Velv...
PornFidelity.E769.Layla.Love...
Hegre.18.11.20.Nuna.Nude.In....
PublicAgent.18.11.20.May.Tha...
PornMegaLoad.18.11.19.Brandy...
Hitzefrei.18.07.04.Texas.Pat...
Private.18.11.19.Dolly.Diore...
Nubiles.18.11.20.Sophie.Spar...
PornMegaLoad.18.11.18.Lexi.S...
PublicPickUps.18.11.20.Jazmi...
POVLife.18.11.19.Riley.Star....
PlayboyPlus.18.11.19.Anetta....
Private.18.11.20.Jessica.Lin...
SapphicErotica.18.11.19.Anai...
PornstarsLikeItBig.18.11.19....
GloryHole.18.11.19.Barbie.Si...
PlumperPass.18.11.19.Alexxxi...
RKPrime.18.11.19.Brett.Rossi...
Hitzefrei.18.07.06.LadyKinky...
Pure18.18.11.20.Natalie.Broo...

3D
The.Art.of.Flight.3D.2011.Ge...
The.End.Of.The.World.3D.2010...
The.First.Avenger.Civil.War....
Die.Unglaublichen.2.2018.3D....
Skyscraper.3D.2018.MULTi.COM...
Ant-Man.And.The.Wasp.3D.2018...
Ant.Man.and.the.Wasp.3D.2018...
Die.Unglaublichen.2.3D.2018....
Die.Unglaublichen.2.2018.3D....
Die.Unglaublichen.2.2018.3D....
Sharknado.6.The.Last.One.3D....
Deep.Kleine.Helden.der.Tiefs...
Deep.3D.2017.MULTI.COMPLETE....
Detective.Dee.und.die.Legend...
Detective.Dee.und.die.Legend...

Old_Stuff
Akte.X.S03.German.DTS.DL.108...
Dunkirk.1958.COMPLETE.BLURAY...
Das.Wunder.von.Manhattan.199...
The.Amazing.Spiderman.2.Rise...
Rise.of.the.Predator.2014.Ge...
Detective.Dee.und.das.Geheim...
Detective.Dee.Und.Der.Fluch....
Ghost.Rider.Spirit.of.Vengea...
Species.IV.Das.Erwachen.2007...
Species.IV.Das.Erwachen.2007...
Hotel.Transsilvanien.2012.Ge...
The.Dead.2010.German.DL.1080...
The.Dead.2.India.2013.German...
Britney.Spears.Live.The.Femm...
Buffy.The.Vampire.Slayer.199...

Filme
Baron.Noir.S02D01.MULTi.COMP...
Das.ist.Weihnachten.2013.Ger...
NCIS.S15.COMPLETE.German.AC...
Fantastic.Four.-.Rise.of.the...
Staatsfeind.Nr.1.Extended.Cu...
Snatch.S02.German.DL.DUBBED....
Snatch.S02.German.DL.DUBBED....
The.Walking.Dead.S09.GERMAN....
Vive.la.France.gesprengt.wir...
Killers.2014.German.DTS.1080...
Killers.2014.German.DTS.720p...
Jeepers.Creepers.2.GERMAN.20...
Jeepers.Creepers.2.GERMAN.20...
The.Walking.Dead.S09.GERMAN....
Marvels.Inhumans.S01.German....
Marvels.Inhumans.S01.German....
Homeland.S07.COMPLETE.German...
Homeland.S07.COMPLETE.German...
So.wie.wir.waren.1973.German...
Strasse.der.Gewalt.1975.Germ...
Strasse.der.Gewalt.1975.Germ...
Squirm.Invasion.der.Bestien....
Squirm.Invasion.der.Bestien....
Africa.addio.German.1966.DL....

 
 
Le.Jeu.Nichts.zu.verbergen.2018.German.AC3.1080p.WEB-DL.x265-FuN

Jahr: 2018
Genre: Komödie
Sprache: Deutsch AC3
Laufzeit: 1h 33mn
Bitrate: 1 966 Kbps
Format: MKV
Größe: 1.29 GiB
Release:

Beschreibung:

Um eine Dinnerparty aufzupeppen, erklären sich diese Freunde bereit, einander alle privaten Nachrichten zu zeigen, die sie erhalten, – mit katastrophalen Folgen.




Format                                   : Matroska
Format version                           : Version 4 / Version 2
File size                                : 1.29 GiB
Duration                                 : 1h 33mn
Overall bit rate                         : 1 966 Kbps
Encoded date                             : UTC 2018-11-17 19:10:43
Writing application                      : mkvmerge v10.0.0 ('To Drown In You') 64bit
Writing library                          : libebml v1.3.4 + libmatroska v1.4.5
DURATION                                 : 00:50:08.413000000
NUMBER_OF_FRAMES                         : 6
NUMBER_OF_BYTES                          : 300
_STATISTICS_WRITING_APP                  : mkvmerge v10.0.0 ('To Drown In You') 64bit
_STATISTICS_WRITING_DATE_UTC             : 2018-11-17 19:10:43
_STATISTICS_TAGS                         : BPS DURATION NUMBER_OF_FRAMES NUMBER_OF_BYTES

Video
ID                                       : 1
Format                                   : HEVC
Format/Info                              : High Efficiency Video Coding
Format profile                           : Main@L4.0
Codec ID                                 : V_MPEGH/ISO/HEVC
Duration                                 : 1h 33mn
Bit rate                                 : 1 543 Kbps
Width                                    : 1 920 pixels
Height                                   : 804 pixels
Display aspect ratio                     : 2.40:1
Frame rate mode                          : Constant
Frame rate                               : 24.000 fps
Color space                              : YUV
Chroma subsampling                       : 4:2:0
Bit depth                                : 8 bits
Bits/(Pixel*Frame)                       : 0.042
Stream size                              : 1.01 GiB (78%)
Writing library                          : x265 2.6:[Windows][GCC 7.3.0][64 bit] 8bit+10bit+12bit
Encoding settings                        : cpuid=1173503 / frame-threads=3 / numa-pools=8 / wpp / no-pmode / no-pme / no-psnr / no-ssim / log-level=2 / input-csp=1 / input-res=1920x804 / interlace=0 / total-frames=0 / level-idc=0 / high-tier=1 / uhd-bd=0 / ref=3 / no-allow-non-conformance / no-repeat-headers / annexb / no-aud / no-hrd / info / hash=0 / no-temporal-layers / open-gop / min-keyint=24 / keyint=240 / bframes=4 / b-adapt=2 / b-pyramid / bframe-bias=0 / rc-lookahead=20 / lookahead-slices=5 / scenecut=40 / no-intra-refresh / ctu=64 / min-cu-size=8 / no-rect / no-amp / max-tu-size=32 / tu-inter-depth=1 / tu-intra-depth=1 / limit-tu=0 / rdoq-level=0 / dynamic-rd=0.00 / no-ssim-rd / signhide / no-tskip / nr-intra=0 / nr-inter=0 / no-constrained-intra / no-strong-intra-smoothing / max-merge=2 / limit-refs=3 / no-limit-modes / me=1 / subme=2 / merange=57 / temporal-mvp / weightp / no-weightb / no-analyze-src-pics / deblock=0:0 / no-sao / no-sao-non-deblock / rd=3 / no-early-skip / rskip / no-fast-intra / no-tskip-fast / no-cu-lossless / no-b-intra / no-splitrd-skip / rdpenalty=0 / psy-rd=2.00 / psy-rdoq=0.00 / no-rd-refine / analysis-reuse-mode=0 / no-lossless / cbqpoffs=0 / crqpoffs=0 / rc=crf / crf=20.0 / qcomp=0.60 / qpstep=4 / stats-write=0 / stats-read=0 / ipratio=1.40 / pbratio=1.30 / aq-mode=1 / aq-strength=1.00 / cutree / zone-count=0 / no-strict-cbr / qg-size=32 / no-rc-grain / qpmax=69 / qpmin=0 / no-const-vbv / sar=1 / overscan=0 / videoformat=5 / range=0 / colorprim=1 / transfer=1 / colormatrix=1 / chromaloc=0 / display-window=0 / max-cll=0,0 / min-luma=0 / max-luma=255 / log2-max-poc-lsb=8 / vui-timing-info / vui-hrd-info / slices=1 / no-opt-qp-pps / no-opt-ref-list-length-pps / no-multi-pass-opt-rps / scenecut-bias=0.05 / no-opt-cu-delta-qp / no-aq-motion / no-hdr / no-hdr-opt / no-dhdr10-opt / analysis-reuse-level=5 / scale-factor=0 / refine-intra=0 / refine-inter=0 / refine-mv=0 / no-limit-sao / ctu-info=0 / no-lowpass-dct / refine-mv-type=0 / copy-pic=1
Default                                  : Yes
Forced                                   : No
DURATION                                 : 01:33:52.334000000
NUMBER_OF_FRAMES                         : 135176
NUMBER_OF_BYTES                          : 1112616771
_STATISTICS_WRITING_APP                  : mkvmerge v10.0.0 ('To Drown In You') 64bit
_STATISTICS_WRITING_DATE_UTC             : 2018-11-17 19:10:43
_STATISTICS_TAGS                         : BPS DURATION NUMBER_OF_FRAMES NUMBER_OF_BYTES

Audio
ID                                       : 2
Format                                   : AC-3
Format/Info                              : Audio Coding 3
Mode extension                           : CM (complete main)
Format settings, Endianness              : Big
Codec ID                                 : A_AC3
Duration                                 : 1h 33mn
Bit rate mode                            : Constant
Bit rate                                 : 384 Kbps
Channel(s)                               : 6 channels
Channel positions                        : Front: L C R, Side: L R, LFE
Sampling rate                            : 48.0 KHz
Bit depth                                : 16 bits
Compression mode                         : Lossy
Stream size                              : 258 MiB (20%)
Title                                    : Surround
Language                                 : German
Default                                  : Yes
Forced                                   : No
DURATION                                 : 01:33:52.544000000
NUMBER_OF_FRAMES                         : 176017
NUMBER_OF_BYTES                          : 270362112
_STATISTICS_WRITING_APP                  : mkvmerge v10.0.0 ('To Drown In You') 64bit
_STATISTICS_WRITING_DATE_UTC             : 2018-11-17 19:10:43
_STATISTICS_TAGS                         : BPS DURATION NUMBER_OF_FRAMES NUMBER_OF_BYTES



Download:
Share Online Share OnlineShare OnlineShare Online
 

Kommentare