HD-AREA wünscht Euch eine besinnliche Weihnachtszeit ;)

DNS SERVER AENDERNum der staatlichen Zensur zu umgehen. Sollten wir von eurem Provider geseprrt werden, nutzt den TOR BROWSER oder ändert euren DNS SERVER.

Filmwünsche können bei uns im Forum abgegeben werden

Wir Speichern Nicht




 
 
 
Top Releases
Earthquake.Die.Welt.Am.Abgru...
Earthquake.Die.Welt.Am.Abgru...
Earthquake.Die.Welt.Am.Abgru...
Paradox.Kill.Zone.Bangkok.20...
I.Tonya.2017.German.AC3.1080...
Deine.Juliet.2018.German.DL....
Ideal.Home.2018.German.DL.10...
Ideal.Home.Ein.Vater.kommt.s...
Deine.Juliet.2018.German.DTS...
Deine.Juliet.2018.MULTi.COMP...

Cinedubs
Venom.German.DL.AC3.Dubbed.1...
Venom.2018.German.AC3D.5.1.D...
Venom.2018.German.AC3D.5.1.D...
Das.krumme.Haus.2017.GERMAN....
Das.krumme.Haus.2017.GERMAN....
I.Still.See.You.Sie.lassen.d...
I.Still.See.You.Sie.lassen.d...
Braven.2018.German.AC3D.DL.1...
Braven.2018.German.AC3D.DL.7...
Smallfoot.Ein.eisigartiges.A...

Neuerscheinungen 2017-18
Gotti.A.Real.American.Godfat...
Untraceable.2008.German.DL.1...
Gotti.A.Real.American.Godfat...
Gotti.A.Real.American.Godfat...
American.Romance.2016.German...
Comanche.Moon.S01.2008.MULTi...
Boar.2017.German.DL.1080p.Bl...
Robin.Hood.Ein.Leben.fuer.Ri...
Robert.3.The.Toymaker.2017.C...
Robert.3.The.Toymaker.2017.G...

XXX
AdultAuditions.E265.Sabrina....
BabyGotBoobs.18.12.01.Tiffan...
AuntJudys.18.11.30.Auntie.Ja...
ATKHairy.18.11.30.Bella.Dahl...
Blacked.18.12.01.Riley.Reid....
BackroomCastingCouch.18.12.0...
AssholeFever.18.12.01.Liza.B...
AllGirlMassage.18.12.03.Abel...
Bang.RealTeens.18.12.03.Khlo...
BrazzersExxtra.18.12.02.Madi...
ATKGirlfriends.18.12.01.Khlo...
AssParade.18.12.03.Sheila.Or...
AllOver30.18.12.01.Mia.Molly...
21EroticAnal.18.12.01.Angeli...
AlettaOceanLive.18.11.30.The...
BlackedRaw.18.12.03.Lena.Rei...
SugarCookie.18.08.10.Marica....
WankItNow.17.12.01.Scarlett....
ProducersFun.17.11.26.Sierra...
WeFuckBlackGirls.18.11.26.Ki...

3D
The.Art.of.Flight.3D.2011.Ge...
The.End.Of.The.World.3D.2010...
The.First.Avenger.Civil.War....
Die.Unglaublichen.2.2018.3D....
Skyscraper.3D.2018.MULTi.COM...
Ant-Man.And.The.Wasp.3D.2018...
Ant.Man.and.the.Wasp.3D.2018...
Die.Unglaublichen.2.3D.2018....
Die.Unglaublichen.2.2018.3D....
Die.Unglaublichen.2.2018.3D....
Sharknado.6.The.Last.One.3D....
Deep.Kleine.Helden.der.Tiefs...
Deep.3D.2017.MULTI.COMPLETE....
Detective.Dee.und.die.Legend...
Detective.Dee.und.die.Legend...

Old_Stuff
Akte.X.S04.German.DTS.DL.108...
Akte.X.S03.German.DTS.DL.108...
Dunkirk.1958.COMPLETE.BLURAY...
Das.Wunder.von.Manhattan.199...
The.Amazing.Spiderman.2.Rise...
Rise.of.the.Predator.2014.Ge...
Detective.Dee.und.das.Geheim...
Detective.Dee.Und.Der.Fluch....
Ghost.Rider.Spirit.of.Vengea...
Species.IV.Das.Erwachen.2007...
Species.IV.Das.Erwachen.2007...
Hotel.Transsilvanien.2012.Ge...
The.Dead.2010.German.DL.1080...
The.Dead.2.India.2013.German...
Britney.Spears.Live.The.Femm...

Filme
Supergirl.S03D01-4.MULTi.COM...
Scandal.S06.COMPLETE.German....
Scandal.S06.COMPLETE.German....
Arrow.S06.German.DL.1080p.Bl...
Arrow.S06.German.DL.720p.Blu...
The.Good.Doctor.S02.German.D...
The.Good.Doctor.S02.German.D...
Bad.Santa.EXTENDED.2003.Germ...
Aladdin.1992.German.AC3.DL.1...
DCs.Legends.of.Tomorrow.S03D...
Boar.2017.German.DL.1080p.Bl...
Zwei.vom.alten.Schlag.2013.G...
Ouija.Seance.The.Final.Game....
Arrow.S06D01-4.MULTi.COMPLET...
Barry.Seal.Only.in.America.2...
Barry.Seal.Only.in.America.2...
4.Blocks.S02D01+2.GERMAN.COM...
The.Raid.2011.German.1080p.B...
Christiane.F.Wir.Kinder.vom....
Frankensteins.Sohn.1939.Germ...
June.2015.German.DL.1080p.Bl...
So.High.2001.German.AC3D.DL....
Penelope.2006.German.DL.AC3....
Freejack.Geisel.der.Zukunft....

 
 
Earthquake.Die.Welt.Am.Abgrund.2016.GERMAN.1080p.BluRay.x264-UNiVERSUM

Jahr: 2016
Genre: Drama
Sprache: Deutsch DTS
Laufzeit: 1h 44mn
Bitrate: 6 852 Kbps
Format: MKV
Größe: 5.01 GiB
Release:

Beschreibung:

Konstantin kehrt nach dem Verbüßen einer Haftstrafe in seine Heimat zurück. Dort liegt nicht nur in seinem persönlichem Umfeld einiges im Argen. Ein vernichtendes Erdbeben hat das Land erschüttert und vielen Menschen das Leben gekostet. Die heimatlosen Überlebenden sind auf Hilfe jeder Art angewiesen und auch Konstantin hilft tatkräftig mit. Dabei trifft er auf den jungen Robert, der ebenfalls als Helfer tätig ist. Dass das Schicksal die Beiden allerdings nicht zum ersten Mal zusammengeführt hat, ist ihnen noch nicht bewusst...EARTHQUAKE beruht auf wahren Begebenheiten und erzählt eine spannende und mitreißende Geschichte über die Ausmaße einer unaufhaltsamen Naturkatastrophe.



Complete name                            : earthquake.die.welt.am.abgrund.2016.german.1080p.bluray.x264-universum.mkv
Format                                   : Matroska
Format version                           : Version 4 / Version 2
File size                                : 5.01 GiB
Duration                                 : 1h 44mn
Overall bit rate                         : 6 852 Kbps
Encoded date                             : UTC 2018-12-05 21:22:05
Writing application                      : mkvmerge v7.9.0 ('Birds') 64bit
Writing library                          : libebml v1.3.1 + libmatroska v1.4.2
DURATION                                 : 01:40:13.165000000
NUMBER_OF_FRAMES                         : 75
NUMBER_OF_BYTES                          : 3079
_STATISTICS_WRITING_APP                  : mkvmerge v7.9.0 ('Birds') 64bit
_STATISTICS_WRITING_DATE_UTC             : 2018-12-05 21:22:05
_STATISTICS_TAGS                         : BPS DURATION NUMBER_OF_FRAMES NUMBER_OF_BYTES

Video
ID                                       : 1
Format                                   : AVC
Format/Info                              : Advanced Video Codec
Format profile                           : High@L4.1
Format settings, CABAC                   : Yes
Format settings, ReFrames                : 5 frames
Codec ID                                 : V_MPEG4/ISO/AVC
Duration                                 : 1h 44mn
Bit rate                                 : 5 207 Kbps
Width                                    : 1 920 pixels
Height                                   : 808 pixels
Display aspect ratio                     : 2.40:1
Frame rate mode                          : Constant
Frame rate                               : 24.000 fps
Color space                              : YUV
Chroma subsampling                       : 4:2:0
Bit depth                                : 8 bits
Scan type                                : Progressive
Bits/(Pixel*Frame)                       : 0.140
Stream size                              : 3.81 GiB (76%)
Writing library                          : x264 core 157 r2935 545de2f
Encoding settings                        : cabac=1 / ref=5 / deblock=1:-1:-1 / analyse=0x3:0x133 / me=umh / subme=8 / psy=1 / psy_rd=1.00:0.15 / mixed_ref=1 / me_range=16 / chroma_me=1 / trellis=2 / 8x8dct=1 / cqm=0 / deadzone=21,11 / fast_pskip=0 / chroma_qp_offset=-3 / threads=18 / lookahead_threads=3 / sliced_threads=0 / nr=0 / decimate=1 / interlaced=0 / bluray_compat=0 / constrained_intra=0 / bframes=3 / b_pyramid=2 / b_adapt=1 / b_bias=0 / direct=3 / weightb=1 / open_gop=0 / weightp=2 / keyint=250 / keyint_min=24 / scenecut=40 / intra_refresh=0 / rc_lookahead=40 / rc=crf / mbtree=1 / crf=20.0 / qcomp=0.60 / qpmin=10 / qpmax=69 / qpstep=4 / ip_ratio=1.40 / aq=1:1.00
Language                                 : German
Default                                  : Yes
Forced                                   : No
DURATION                                 : 01:44:37.000000000
NUMBER_OF_FRAMES                         : 150648
NUMBER_OF_BYTES                          : 4193596157
_STATISTICS_WRITING_APP                  : mkvmerge v7.9.0 ('Birds') 64bit
_STATISTICS_WRITING_DATE_UTC             : 2018-12-05 21:22:05
_STATISTICS_TAGS                         : BPS DURATION NUMBER_OF_FRAMES NUMBER_OF_BYTES

Audio
ID                                       : 2
Format                                   : DTS
Format/Info                              : Digital Theater Systems
Mode                                     : 16
Format settings, Endianness              : Big
Codec ID                                 : A_DTS
Duration                                 : 1h 44mn
Bit rate mode                            : Constant
Bit rate                                 : 1 509 Kbps
Channel(s)                               : 6 channels
Channel positions                        : Front: L C R, Side: L R, LFE
Sampling rate                            : 48.0 KHz
Bit depth                                : 24 bits
Compression mode                         : Lossy
Stream size                              : 1.10 GiB (22%)
Title                                    : DTS
Language                                 : German
Default                                  : Yes
Forced                                   : No

Text
ID                                       : 3
Format                                   : UTF-8
Codec ID                                 : S_TEXT/UTF8
Codec ID/Info                            : UTF-8 Plain Text
Title                                    : Forced
Language                                 : German
Default                                  : Yes
Forced                                   : No


Download:
Share Online Share OnlineShare OnlineShare Online
 

Kommentare