DNS SERVER AENDERNum der staatlichen Zensur zu umgehen. Sollten wir von eurem Provider geseprrt werden, nutzt den TOR BROWSER oder ändert euren DNS SERVER.

Filmwünsche können bei uns im Forum abgegeben werden

Wir Speichern Nicht




 
 
 
Top Releases
Gold.Gier.hat.eine.neue.Farb...
Charlie.Countryman.2013.Germ...
Halloween.German.DL.AC3.Dubb...
Halloween.German.DL.AC3.Dubb...
New.Worlds.Aufbruch.nach.Ame...
New.Worlds.Aufbruch.nach.Ame...
City.of.Life.and.Death.2009....
City.of.Life.and.Death.2009....
City.of.Life.and.Death.2009....
Zuhause.ist.es.am.schoensten...

Cinedubs
Gaensehaut.2.Gruseliges.Hall...
Aquaman.TS.LD.German.DL.720p...
Eho.Echo.German.720p.WEBRip....
Eho.Echo.German.1080p.WEBRip...
Bad.Times.at.the.El.Royale.2...
Bad.Spies.2018.German.DL.AC3...
Aquaman.2018.GERMAN.AC3.MD.7...
Bad.Spies.German.DL.AC3.Dubb...
Bad.Spies.German.DL.AC3.Dubb...
Bad.Times.at.the.El.Royale.G...

Neuerscheinungen 2018-19
Shaitan.2011.German.1080p.HD...
Von.Herren.und.Dienern.2015....
Maniac.1980.REMASTERED.COMPL...
Colditz.2005.German.DL.1080p...
Cry.Wolf.2005.German.DL.1080...
Colditz.2005.German.DL.1080p...
Colditz.2005.German.720p.Blu...
Death.Kiss.UNCUT.2018.German...
Death.Kiss.UNCUT.2018.DUAL.C...
Death.Kiss.UNCUT.2018.German...

XXX
GapeLand.18.12.26.Katy.Rose....
FTVMilfs.18.12.25.Candice.Da...
GirlsGonePink.18.12.27.Aspen...
HotLegsAndFeet.18.12.25.Mia....
Fitting-Room.18.12.24.Red.Fo...
GiveMePink.18.12.25.Mary.Kal...
GirlsOutWest.18.12.26.Lizzie...
HardX.18.12.25.Eliza.Ibarra....
Hustler.18.12.20.Jennifer.Wh...
Hegre.18.12.25.Ariel.And.Mel...
Glamsmoke.Vol.1.XXX.1080p.WE...
Hustler.18.12.18.Ella.Nova.X...
Holed.18.12.25.Lolli.Lane.St...
FoxxedUp.18.12.25.Jenna.And....
Glamsmoke.Vol.1.XXX.720p.WEB...
HouseOfTaboo.18.12.28.Silvia...
HollyRandall.18.12.27.Aidra....
From.Teen.Ass.To.Teen.Mouth....
From.Teen.Ass.To.Teen.Mouth....
Cosmid.18.12.26.Abigail.Andr...

3D
Bis.an.die.Grenzen.des.Unive...
Best.of.3D.vol.13.-.15.GERMA...
Limbradur.und.die.Magie.der....
Kaluoka.Hina.Das.Zauberriff....
Limbradur.und.die.Magie.der....
Smallfoot.3D.2018.COMPLETE.B...
Smallfoot.Ein.eisigartiges.A...
Skyscraper.3D.2018.German.DL...
Meg.3D.2018.MULTi.COMPLETE.B...
Meg.3D.2018.German.DL.1080p....
Gans.im.Glueck.3D.2018.MULTi...
The.Art.of.Flight.3D.2011.Ge...
The.End.Of.The.World.3D.2010...
The.First.Avenger.Civil.War....
Die.Unglaublichen.2.2018.3D....

Old_Stuff
Peter.Hase.2018.German.DL.10...
Akte.X.S05.German.DTS.DL.108...
Akte.X.S04.German.DTS.DL.108...
Akte.X.S03.German.DTS.DL.108...
Dunkirk.1958.COMPLETE.BLURAY...
Das.Wunder.von.Manhattan.199...
The.Amazing.Spiderman.2.Rise...
Rise.of.the.Predator.2014.Ge...
Detective.Dee.und.das.Geheim...
Detective.Dee.Und.Der.Fluch....
Ghost.Rider.Spirit.of.Vengea...
Species.IV.Das.Erwachen.2007...
Species.IV.Das.Erwachen.2007...
Hotel.Transsilvanien.2012.Ge...
The.Dead.2010.German.DL.1080...

Filme
Die.Schlacht.um.den.Planet d...
Eroberung.des.Planeten.der.A...
NCIS.Los.Angeles.S10.GERMAN....
NCIS.Los.Angeles.S10.GERMAN....
S.W.A.T.2017.S02.German.DD51...
S.W.A.T.2017.S02.German.DD51...
Carter.S01.GERMAN.DL.720p.HD...
The.Big.Bang.Theory.S12.GERM...
The.Big.Bang.Theory.S12.GERM...
Young.Sheldon.S02.GERMAN.DUB...
Young.Sheldon.S02.GERMAN.DUB...
Outlander.S04.German.DD51.DL...
Black.Panther.2018.German.DT...
Runner.Runner.2013.German.DL...
Insidious.2010.German.DL.108...
Alarmstufe.Rot.1992.German.D...
Zelle.211.Der.Knastaufstand....
Zerophilia.Heute.er.morgen.s...
Modern.Family.S09.GERMAN.DUB...
Modern.Family.S09.GERMAN.DUB...
American.Horror.Story.S08.GE...
American.Horror.Story.S08.GE...
Die.Casting.Couch.2006.Germa...
Dont.look.Up.2009.German.DTS...

 
 
NCIS.Los.Angeles.S10.GERMAN.DL.DUBBED.1080p.WEB.h264-VoDTv

Jahr: 2018
Genre: Krimi | Drama | Mystery
Sprache: Deutsch AC3 | Englisch AC3
Laufzeit: 41min je Folge
Bitrate: 8200 Kbps
Format: MKV
Größe: 2,6 GB je Folge
Release:

Beschreibung:

 

„NCIS: Los Angeles“ zeigt die Fälle des Office of Special Projects, einer Undercover-Einheit des NCIS (Naval Criminal Investigative Service), das in Los Angeles beheimatet ist. Dieses setzt sich zumeist mit Bedrohungen der Sicherheit der Vereinigten Staaten auseinander. Angeführt von den Agenten Callen und Hanna ermittelt das Team in Fällen, in denen Mitglieder der Navy verwickelt sind. Dabei übernimmt die Departement-Managerin Henrietta „Hetty“ Lange eine gewisse Mutterrolle: Mit strenger Hand sorgt sie aus dem Hintergrund dafür, dass die Arbeit voran geht und effektiv bleibt, wenn es nötig ist kann sie jedoch auch mit seelischen Streicheleinheiten, Annekdoten zur Auflockerung und Lebensweisheiten die Agenten wieder aufbauen. Ihren Sinn für Humor lässt sie dabei meist nur bei Gesprächen unter vier Augen durchscheinen.

 

enthaltene Folgen:

NCIS.Los.Angeles.S10E01.GERMAN.DL.DUBBED.1080p.WEB.h264-VoDTv NEU



General
Complete name                            : NCIS.Los.Angeles.S10E01.GERMAN.DL.DUBBED.1080p.WEB.h264-VoDTv\ncis.los.angeles.s10e01.german.dl.dubbed.1080p.web.h264-vodtv.mkv
Format                                   : Matroska
Format version                           : Version 4 / Version 2
File size                                : 2.67 GiB
Duration                                 : 41mn 24s
Overall bit rate                         : 9 216 Kbps
Movie name                               : NCIS.Los.Angeles.S10E01.GERMAN.DL.DUBBED.1080p.WEB.h264-VoDTv
Encoded date                             : UTC 2019-01-07 23:35:23
Writing application                      : mkvmerge v19.0.0 ('Brave Captain') 64-bit
Writing library                          : libebml v1.3.5 + libmatroska v1.4.8
DURATION                                 : 00:40:32.053000000
NUMBER_OF_FRAMES                         : 660
NUMBER_OF_BYTES                          : 18300
_STATISTICS_WRITING_APP                  : mkvmerge v19.0.0 ('Brave Captain') 64-bit
_STATISTICS_WRITING_DATE_UTC             : 2019-01-07 23:35:23
_STATISTICS_TAGS                         : BPS DURATION NUMBER_OF_FRAMES NUMBER_OF_BYTES

Video
ID                                       : 1
Format                                   : AVC
Format/Info                              : Advanced Video Codec
Format profile                           : High@L4.0
Format settings, CABAC                   : Yes
Format settings, ReFrames                : 4 frames
Codec ID                                 : V_MPEG4/ISO/AVC
Duration                                 : 41mn 24s
Bit rate                                 : 8 200 Kbps
Width                                    : 1 920 pixels
Height                                   : 1 080 pixels
Display aspect ratio                     : 16:9
Frame rate mode                          : Constant
Frame rate                               : 25.000 fps
Original frame rate                      : 23.976 fps
Color space                              : YUV
Chroma subsampling                       : 4:2:0
Bit depth                                : 8 bits
Scan type                                : Progressive
Bits/(Pixel*Frame)                       : 0.158
Stream size                              : 2.37 GiB (89%)
Default                                  : Yes
Forced                                   : No
Color primaries                          : BT.709
Transfer characteristics                 : BT.709
Matrix coefficients                      : BT.709

Audio #1
ID                                       : 2
Format                                   : AC-3
Format/Info                              : Audio Coding 3
Mode extension                           : CM (complete main)
Format settings, Endianness              : Big
Codec ID                                 : A_AC3
Duration                                 : 41mn 24s
Bit rate mode                            : Constant
Bit rate                                 : 192 Kbps
Channel(s)                               : 2 channels
Channel positions                        : Front: L R
Sampling rate                            : 48.0 KHz
Bit depth                                : 16 bits
Compression mode                         : Lossy
Stream size                              : 56.9 MiB (2%)
Language                                 : German
Default                                  : Yes
Forced                                   : Yes

Audio #2
ID                                       : 3
Format                                   : E-AC-3
Format/Info                              : Audio Coding 3
Format settings, Endianness              : Big
Codec ID                                 : A_EAC3
Duration                                 : 41mn 24s
Bit rate mode                            : Constant
Bit rate                                 : 640 Kbps
Channel(s)                               : 6 channels
Channel positions                        : Front: L C R, Side: L R, LFE
Sampling rate                            : 48.0 KHz
Compression mode                         : Lossy
Stream size                              : 190 MiB (7%)
Language                                 : English
Default                                  : No
Forced                                   : No

Text
ID                                       : 4
Format                                   : UTF-8
Codec ID                                 : S_TEXT/UTF8
Codec ID/Info                            : UTF-8 Plain Text
Language                                 : English
Default                                  : No
Forced                                   : No



Download:
Share-Online.biz Share-Online.bizShare-Online.bizShare-Online.biz | Rapidgator.net Rapidgator.netRapidgator.netRapidgator.net
 

Kommentare